<?xml version="1.0" standalone="no"?>
<!DOCTYPE svg PUBLIC "-//W3C//DTD SVG 1.1//EN" "http://www.w3.org/Graphics/SVG/1.1/DTD/svg11.dtd" >
<svg xmlns="http://www.w3.org/2000/svg">
<metadata>
This is a custom SVG font generated by IcoMoon.
<iconset grid="16"></iconset>
</metadata>
<defs>
<font id="picons" horiz-adv-x="512" >
<font-face units-per-em="512" ascent="480" descent="-32" />
<missing-glyph horiz-adv-x="512" />
<glyph unicode="&#x21;" d=" M 376.80,480.00 L 467.92,480.00 C 468.72,476.56 470.48,469.60 471.36,466.16 C 416.24,369.04 361.28,271.92 305.92,174.96 C 340.80,110.72 375.92,46.56 411.68-17.28 C 411.28-20.96 410.48-28.32 410.08-32.00 L 319.28-32.00 C 316.40-29.20 310.64-23.52 307.76-20.72 C 271.84,44.32 236.08,109.52 200.80,174.88 C 255.84,272.00 310.88,369.12 365.84,466.32 C 368.56,469.76 374.00,476.56 376.80,480.00 Z M 63.76,376.40 C 95.04,380.40 128.72,380.88 159.84,376.16 C 183.20,345.68 198.88,309.76 219.60,277.28 C 192.32,227.36 164.00,177.84 135.28,128.72 C 133.12,127.04 128.64,123.76 126.40,122.08 C 97.84,121.04 69.20,121.60 40.56,121.84 L 34.32,127.20 L 34.64,135.44 C 60.88,182.80 88.72,229.36 114.48,276.96 C 97.12,307.28 78.64,337.04 62.08,367.76 L 63.76,376.40 Z"  />
<glyph unicode="&#x22;" d="M0.00,230.898 l0.00-249.633 142.723,0.00 c 156.518,0.00 163.681,0.796 196.576,15.917 37.67,17.774 61.015,43.772 72.422,80.646 7.162,22.814 8.489,73.484 2.387,97.094 -5.041,20.692 -16.713,42.18 -28.65,53.587 -10.877,10.611 -30.242,20.427 -39.793,20.692 -9.815,0.00 -7.162,3.979
6.898,10.611 16.713,7.694 32.895,24.141 40.323,41.119 7.428,15.917 9.815,56.241 5.306,78.524 -7.428,35.814 -31.304,67.648 -61.811,82.504
-33.426,16.448 -32.63,16.182 -191.005,17.509 l-145.376,0.796 0.00-249.368z m 275.366,153.60 c 14.06-8.754 19.896-24.937 18.57-52.792 -1.061-26.529 -6.102-39.262 -18.835-46.69 -7.694-4.775 -14.59-5.306 -83.299-6.102 l-75.076-0.796 0.00,55.71 0.00,55.975 75.076,0.00
c 70.301,0.00 75.341-0.266 83.565-5.306z m 5.306-188.087 c 19.631-10.081 28.916-26.263 31.569-54.383 1.592-18.835 -3.714-41.65 -12.734-53.057 -2.918-3.714 -10.611-9.815 -16.448-12.999 -10.611-5.571 -14.59-5.836 -88.605-6.632 l-77.729-0.796 0.00,66.322 0.00,66.586
76.933,0.00 c 70.566,0.00 77.994-0.53 87.014-5.041zM 522.611,418.985 l0.00-31.834 102.134,0.00 102.134,0.00 0.00,31.834 0.00,31.834 -102.134,0.00 -102.134,0.00 0.00-31.834zM 599.544,351.071 c-80.382-10.877 -132.642-58.098 -154.396-140.07 -7.428-28.12 -7.958-81.442 -1.326-109.032
15.917-63.668 59.954-108.236 123.888-125.214 24.937-6.632 102.93-6.632 127.337,0.00 25.733,6.898 52.792,20.692 68.178,34.752 16.182,14.59
31.569,42.711 33.957,62.077 0.796,6.898 1.857,16.448 2.653,20.958 l 1.061,8.754 -44.568,0.00 -44.568,0.00 -1.857-11.142 c-1.326-8.489 -4.51-13.795
-13.264-22.018 -14.06-13.795 -34.487-19.896 -64.73-19.896 -50.139,0.00 -79.586,25.202 -86.483,73.75 l-1.592,11.142 130.255,0.00 130.52,0.00 -1.592,36.61 c-1.592,42.18 -7.694,68.443 -22.284,98.155 -18.039,36.874 -55.445,66.322 -96.564,76.137 -17.509,4.245 -68.178,7.162
-84.626,5.041z m 67.913-80.116 c 20.958-10.611 36.078-34.487 38.732-60.22 l 0.796-7.958 -79.32-0.796 c-43.772-0.266 -80.382,0.266
-81.442,1.326 -3.183,3.183 6.898,28.386 16.448,41.65 9.815,14.06 23.876,24.406 40.058,29.712 16.713,5.306 50.934,3.449 64.73-3.714z" horiz-adv-x="806"  />
<glyph unicode="&#x23;" d="M 244.864,290.022C 210.099,351.846, 172.928,402.227, 170.189,405.914C 114.099,379.418, 72.218,327.757, 59.187,265.472C 64.461,265.37, 148.275,264.371, 244.864,290.022
	z M 269.926,222.464c 2.662,0.845, 5.274,1.613, 7.962,2.381c-5.043,11.443-10.573,22.886-16.333,34.176c-103.578-30.976-202.982-28.749-206.515-28.646
	C 54.963,228.25, 54.886,226.15, 54.886,224.00c0.00-51.738, 19.558-98.842, 51.61-134.477c-0.051,0.051-0.154,0.179-0.154,0.179
	S 161.408,187.341, 269.926,222.464z M 132.378,65.459l 0.051,0.077c-1.51,1.178-3.098,2.227-4.557,3.456
	C 130.534,66.842, 132.378,65.459, 132.378,65.459z M 207.821,419.277C 207.642,419.226, 207.462,419.20, 207.309,419.149C 207.59,419.226, 207.795,419.251, 207.821,419.277
	L 207.821,419.277z M 388.838,374.938c-35.43,31.206-81.894,50.176-132.813,50.176c-16.358,0.00-32.205-1.997-47.411-5.683
	c 3.046-4.045, 40.806-54.221, 75.213-117.325C 359.654,330.547, 388.326,374.118, 388.838,374.938z M 256.026-11.52C 125.926-11.52, 20.48,93.926, 20.48,224.00
	s 105.446,235.52, 235.546,235.52c 130.074,0.00, 235.494-105.446, 235.494-235.52S 386.099-11.52, 256.026-11.52z M 290.227,191.104c-118.042-41.139-157.03-123.878-157.798-125.568
	c 34.099-26.65, 76.954-42.65, 123.597-42.65c 27.853,0.00, 54.374,5.658, 78.49,15.898c-2.97,17.638-14.669,79.258-42.957,152.781
	C 291.123,191.386, 290.662,191.258, 290.227,191.104z M 299.264,272.154c 4.71-9.60, 9.19-19.328, 13.363-29.184c 1.51-3.482, 2.918-6.938, 4.352-10.394
	c 69.478,8.73, 137.856-6.093, 140.083-6.579c-0.461,47.718-17.51,91.494-45.722,125.747C 410.931,351.155, 378.675,304.563, 299.264,272.154z M 329.242,200.832
	c 26.419-72.576, 37.12-131.635, 39.142-143.667c 45.184,30.49, 77.261,78.848, 86.195,134.938C 450.611,193.408, 394.266,211.251, 329.242,200.832z"  />
<glyph unicode="&#x24;" d="M 478.898,288.00l-28.103,0.00 l-0.60,0.00 c-17.583,0.00-32.994,14.871-34.195,32.00l0.00,0.00C 416.002,411.334, 342.371,480.00, 250.405,480.00l-83.912,0.00 
	C 74.587,480.00, 0.065,406.00,0.00,314.667l0.00-181.399 C0.00,41.941, 74.587-32.00, 166.492-32.00l 179.21,0.00 C 437.676-32.00, 512.00,41.941, 512.00,133.268L 512.00,250.459 
	C 512.00,268.71, 497.28,288.00, 478.898,288.00z M 160.00,352.00l 96.00,0.00 c 17.60,0.00, 32.00-14.40, 32.00-32.00s-14.40-32.00-32.00-32.00l-96.00,0.00 c-17.60,0.00-32.00,14.40-32.00,32.00S 142.40,352.00, 160.00,352.00
	z M 352.00,96.00L 160.00,96.00 c-17.60,0.00-32.00,14.40-32.00,32.00s 14.40,32.00, 32.00,32.00l 192.00,0.00 c 17.60,0.00, 32.00-14.40, 32.00-32.00S 369.60,96.00, 352.00,96.00z"  />
<glyph unicode="&#x25;" d="M 400.00,272.00 C 364.71,272.00 336.00,243.29 336.00,208.00 C 336.00,172.71 364.71,144.00 400.00,144.00 C 435.29,144.00 464.00,172.71 464.00,208.00 C 464.00,243.29 435.29,272.00 400.00,272.00 Z M 400.00,320.00 L 400.00,320.00 C 461.855,320.00 512.00,269.856 512.00,208.00 C 512.00,146.145 461.855,96.00 400.00,96.00 C 338.145,96.00 288.00,146.145 288.00,208.00 C 288.00,269.856 338.145,320.00 400.00,320.00 ZM0.00,208.00A112.00,112.00 1980.00 1 1 224.00,208A112.00,112.00 1980.00 1 1 0.00,208z"  />
<glyph unicode="&#x26;" d="M 17.203,135.526L 25.60,171.366l-8.397,37.043c-0.23,1.101-2.33,1.946-4.915,1.946c-2.611,0.00-4.71-0.845-4.915-1.946L0.00,171.366
	l 7.398-35.84c 0.205-1.126, 2.304-1.946, 4.915-1.946C 14.874,133.581, 16.973,134.40, 17.203,135.526z M 69.683,115.635L 76.80,171.034L 69.683,256.717
	C 69.478,258.918, 66.816,260.634, 63.59,260.634c-3.251,0.00-5.914-1.69-6.067-3.891L 51.20,171.034l 6.323-55.398c 0.154-2.176, 2.816-3.866, 6.067-3.866
	C 66.816,111.744, 69.478,113.459, 69.683,115.635z M 122.061,116.531L 128.00,171.008L 122.061,285.107c-0.154,2.662-3.328,4.787-7.194,4.787
	c-3.891,0.00-7.066-2.099-7.194-4.787L 102.40,171.008l 5.274-54.502c 0.128-2.662, 3.302-4.762, 7.194-4.762
	C 118.733,111.744, 121.907,113.843, 122.061,116.531z M 174.336,117.35L 179.20,170.982l-4.864,114.944C 174.208,289.101, 170.624,291.61, 166.144,291.61
	c-4.506,0.00-8.09-2.509-8.218-5.683L 153.60,170.982l 4.352-53.632c 0.077-3.149, 3.686-5.658, 8.192-5.658C 170.624,111.693, 174.208,114.15, 174.336,117.35z
	 M 226.56,118.016L 230.40,170.957L 226.56,302.746C 226.483,306.381, 222.362,309.325, 217.395,309.325c-4.966,0.00-9.062-2.944-9.139-6.579L 204.80,171.008
	c0.00-0.077, 3.456-52.966, 3.456-52.966c 0.077-3.584, 4.173-6.528, 9.139-6.528C 222.362,111.488, 226.483,114.406, 226.56,118.016z M 263.117,111.462
	c 0.154,0.00, 181.734-0.102, 182.912-0.102c 36.454,0.00, 65.971,28.57, 65.971,63.821s-29.517,63.821-65.971,63.821c-9.062,0.00-17.664-1.766-25.523-4.966
	C 415.258,291.533, 365.363,336.64, 304.538,336.64c-14.874,0.00-29.389-2.816-42.189-7.629C 257.382,327.142, 256.026,325.248, 256.00,321.536l0.00-202.522 
	C 256.051,115.098, 259.174,111.846, 263.117,111.462z"  />
<glyph unicode="&#x27;" d="M 389.12,224.00c0.00-73.523-59.622-133.12-133.12-133.12c-73.523,0.00-133.12,59.597-133.12,133.12c0.00,8.755, 0.87,17.306, 2.509,25.60L 35.84,249.60 l0.00-176.947 
	c0.00-37.99, 30.771-68.813, 68.813-68.813l 302.694,0.00 c 37.99,0.00, 68.813,30.797, 68.813,68.813L 476.16,249.60 l-89.523,0.00 C 388.25,241.306, 389.12,232.755, 389.12,224.00z M 407.347,444.16
	L 104.653,444.16 C 66.637,444.16, 35.84,413.338, 35.84,375.347L 35.84,300.80 l 111.462,0.00 C 171.392,334.848, 211.098,357.12, 256.00,357.12s 84.608-22.272, 108.698-56.32L 476.16,300.80 L 476.16,375.347 
	C 476.16,413.338, 445.338,444.16, 407.347,444.16z M 441.011,359.168c0.00-6.784-5.53-12.288-12.288-12.288l-36.838,0.00 c-6.758,0.00-12.288,5.53-12.288,12.288L 379.597,396.032 
	c0.00,6.784, 5.555,12.288, 12.288,12.288l 36.838,0.00 c 6.784,0.00, 12.288-5.53, 12.288-12.288L 441.011,359.168 z M 337.92,224.00c0.00,45.261-36.685,81.92-81.92,81.92S 174.08,269.261, 174.08,224.00
	s 36.685-81.92, 81.92-81.92S 337.92,178.739, 337.92,224.00z"  />
<glyph unicode="&#x28;" d="M 212.00,465.60 c-12.80-8.80 -28.80-20.80 -34.40-27.20 -17.60-21.60 -20.80-65.60 -6.40-92.80 12.00-24.00
12.00-26.40 -6.40-53.60 -19.20-27.20 -36.80-89.60 -36.80-127.20 0.00-27.20 -36.80-59.20 -84.80-73.60 l-41.60-12.00 21.60-53.60 c 19.20-45.60 25.60-53.60 40.80-51.20 31.20,3.20 72.00,27.20 116.80,67.20 l 43.20,40.00 39.20-28.80 c 21.60-16.00 44.80-37.60 52.00-48.80 l 13.60-20.00 37.60,20.80 c 61.60,35.20 61.60,35.20 29.60,77.60 -16.00,20.80 -44.80,49.60 -64.80,64.80 l-36.00,28.00 27.20,4.80 c 36.80,7.20 77.60,32.80 77.60,48.80 0.00,10.40 -22.40,55.20 -37.60,74.40 -0.80,1.60 -16.80-3.20 -33.60-11.20 -18.40-8.00 -38.40-12.00 -46.40-8.80 -12.00,4.80 -10.40,8.00 11.20,16.80 29.60,12.80 58.40,54.40 58.40,84.80 0.00,11.20 -8.00,32.80 -18.40,48.00 -32.00,47.20 -77.60,59.20
-121.60,32.80z" horiz-adv-x="424"  />
<glyph unicode="&#x29;" d="M 172.00,461.60 c-69.60-27.20 -120.80-74.40 -149.60-137.60 -24.80-55.20 -25.60-152.00 -0.80-204.80 24.00-52.80 68.80-99.20 120.80-124.80 39.20-19.20 55.20-22.40 113.60-22.40 57.60,0.00 73.60,3.20 108.00,21.60 112.80,59.20 164.00,182.40
128.00,306.40 -17.60,60.80 -91.20,138.40 -151.20,158.40 -45.60,15.20 -132.80,16.80 -168.80,3.20z m 76.00-129.60 l0.00-108.00
-104.00,0.00 -104.00,0.00 0.00,24.80 c0.00,13.60 11.20,46.40 24.80,72.00 33.60,62.40 80.00,97.60 145.60,111.20 18.40,3.20 34.40,6.40 36.00,7.20 0.80,0.80 1.60-48.00 1.60-107.20z m 218.40-145.60 c-6.40-41.60 -29.60-84.80 -62.40-118.40 -36.00-35.20 -66.40-51.20 -112.00-57.60 l-36.00-4.80 0.00,105.60 0.00,104.80 107.20,0.00 108.00,0.00 -4.80-29.60z"  />
<glyph unicode="&#x2a;" d="M 224.00,464.80 c0.00-8.80 -14.40-31.20 -31.20-48.80 -31.20-32.80 -31.20-32.80 -56.00-20.00 -24.80,12.00 -24.80,12.00 -24.80-8.00 0.00-26.40 -8.80-42.40 -39.20-75.20 -28.00-29.60 -40.80-68.00 -40.80-123.20 0.00-36.00 -1.60-38.40 -16.80-33.60 -16.00,5.60 -16.80,4.00 -11.20-24.80 17.60-97.60 99.20-163.20 202.40-163.20 88.80,0.00 169.60,54.40 196.80,132.80 13.60,40.80 28.00,195.20 17.60,195.20 -3.20,0.00 -12.80-8.00 -20.00-17.60 -14.40-17.60 -14.40-16.80 -48.00,46.40 -33.60,64.80 -86.40,132.80 -113.60,147.20 -12.80,7.20 -15.20,5.60 -15.20-7.20z m 24.80-204.80 c 11.20,4.00 15.20,0.80 15.20-8.80 0.00-8.00 9.60-24.00 20.80-36.00 16.00-16.80 21.60-31.20 22.40-58.40 0.80-23.20 4.80-36.80 11.20-36.80 28.80,0.00 -14.40-77.60 -52.00-93.60 -98.40-40.80
-176.80,14.40 -184.80,128.80 -3.20,44.00 -2.40,47.20 8.80,38.40 11.20-9.60 15.20-6.40 29.60,24.00 8.80,19.20 27.20,48.80 40.80,65.60 l 25.60,29.60 23.20-28.80 c 17.60-20.80 28.00-27.20 39.20-24.00z" horiz-adv-x="424"  />
<glyph unicode="&#x2b;" d="M 392.00,468.00 c-53.60-28.80 -224.80-255.20 -296.00-389.60 -26.40-50.40 -27.20-53.60 -14.40-68.00 25.60-28.00 90.40-44.80 148.00-39.20 88.80,8.80 130.40,39.20 166.40,120.00 28.80,64.80 41.60,128.00 51.20,246.40 11.20,136.80 0.80,161.60
-55.20,130.40zM 132.00,384.80 c-47.20-27.20 -104.80-86.40 -120.80-124.80 -6.40-15.20 -11.20-46.40 -11.20-70.40 0.00-41.60
20.00-117.60 30.40-117.60 4.00,0.00 136.80,287.20 152.00,328.80 4.80,12.00 -8.80,8.00 -50.40-16.00z" horiz-adv-x="456"  />
<glyph unicode="&#x2c;" d="M 153.60,470.40 c-5.60-5.60 -9.60-29.60 -9.60-54.40 0.00-24.80 -4.00-48.80 -9.60-54.40 -5.60-5.60 -31.20-9.60
-59.20-9.60 -62.40,0.00 -71.20-9.60 -71.20-75.20 0.80-127.20 57.60-192.80 151.20-175.20 36.00,6.40 52.80,24.80 52.80,56.80 l0.00,28.80 22.40-20.80 c 12.00-12.00 36.00-24.00 53.60-26.40 45.60-8.80 60.00-24.00 60.00-64.80 0.00-52.80 -4.80-59.20 -44.80-59.20
-26.40,0.00 -36.80,4.00 -43.20,15.20 -10.40,20.80 -2.40,40.80 16.80,40.80 11.20,0.00 15.20,5.60 15.20,20.00 0.00,23.20 -13.60,25.60 -48.80,8.00
-30.40-16.00 -40.80-42.40 -31.20-77.60 10.40-35.20 43.20-54.40 93.60-54.40 76.80,0.00 116.00,48.00 132.00,160.80 8.80,66.40 -3.20,216.00 -20.80,259.20 -14.40,34.40 -63.20,59.20 -116.80,60.00 -22.40,0.00 -44.80,6.40 -60.00,16.00 -27.20,17.60 -68.00,20.80 -82.40,6.40z" horiz-adv-x="440"  />
<glyph unicode="&#x2d;" d="M 128.00,474.40 c-53.60-17.60 -72.00-47.20 -72.00-118.40 0.00-43.20 0.00-44.00 -24.00-44.00 -24.00,0.00 -24.00-0.80 -24.00-44.00 0.00-43.20 0.00-44.00 24.00-44.00 l 24.00,0.00 0.00-128.00 0.00-128.00 52.00,0.00 51.20,0.00 2.40,126.40 2.40,125.60 36.00,4.00 36.00,4.00 4.00,38.40 c 3.20,20.80 3.20,40.00 0.80,41.60 -1.60,2.40 -20.80,4.00 -42.40,4.00 -38.40,0.00 -38.40,0.00 -38.40,26.40 0.00,36.80 8.00,44.00
48.00,47.20 l 36.00,2.40 2.40,46.40 2.40,45.60 -54.40-0.80 c-29.60,0.00 -60.00-2.40 -66.40-4.80z" horiz-adv-x="248"  />
<glyph unicode="&#x2e;" d="M 76.00,465.60 c-61.60-38.40 -88.00-105.60 -68.80-171.20 5.60-17.60 11.20-53.60 12.80-80.00 6.40-123.20
96.00-209.60 232.00-224.00 35.20-4.00 80.80-8.80 101.60-11.20 49.60-6.40 88.00,7.20 117.60,40.80 34.40,40.00 46.40,84.80 33.60,126.40 -5.60,18.40 -12.00,54.40 -12.80,80.00 -4.80,69.60 -24.00,118.40 -64.00,160.80 -44.00,46.40 -91.20,68.00 -174.40,78.40 -130.40,16.00 -152.00,16.00 -177.60,0.00z m 270.40-121.60 c 24.80-28.00 25.60-45.60 3.20-59.20 -12.80-7.20 -18.40-4.00 -40.00,21.60 -21.60,25.60 -30.40,29.60 -58.40,29.60 -21.60,0.00 -37.60-4.80 -46.40-15.20 -24.00-26.40 -1.60-48.00 66.40-60.80 65.60-13.60 99.20-38.40
108.00-80.00 6.40-30.40 -16.80-70.40 -51.20-88.00 -32.00-16.80 -110.40-17.60 -142.40-0.80 -54.40,28.00 -75.20,86.40 -32.00,91.20 16.80,2.40 24.00-2.40 34.40-21.60 20.00-39.20 60.00-51.20 103.20-32.00 52.00,24.00 27.20,64.00 -51.20,83.20 -75.20,18.40 -108.00,47.20 -101.60,89.60 9.60,58.40 64.00,85.60 145.60,72.80 30.40-4.00 45.60-12.00 62.40-30.40z"  />
<glyph unicode="&#x2f;" d="M0.00,433.60 l0.00-48.80 26.40-4.00 c 13.60-2.40 40.00-6.40 57.60-8.80 17.60-3.20 58.40-17.60 90.40-32.00 118.40-55.20 208.80-178.40 228.00-312.00 l 8.80-60.00 47.20,0.00 48.00,0.00 -5.60,56.00 c-10.40,116.00 -56.80,212.00 -144.80,300.80
-90.40,90.40 -185.60,136.80 -309.60,152.00 l-46.40,4.80 0.00-48.00zM0.00,256.80 c0.00-46.40 0.80-48.80 20.00-48.80 30.40,0.00 100.80-29.60 132.00-55.20 36.00-29.60 72.00-94.40 78.40-143.20 l 5.60-37.60 43.20-2.40 c 24.00-1.60 46.40,0.80 49.60,4.00 11.20,11.20 -8.00,96.80 -31.20,146.40 -43.20,92.00 -154.40,171.20
-252.80,181.60 l-44.80,4.80 0.00-49.60zM 20.00,84.00 c-56.80-56.00 19.20-141.60 87.20-97.60 25.60,16.80 33.60,53.60 17.60,84.00 -20.80,40.00 -72.80,46.40
-104.80,13.60z"  />
<glyph unicode="&#x30;" d="M 120.00,474.40 c-6.40-2.40 -21.60-13.60 -33.60-24.80 l-22.40-20.80 0.00,21.60 c0.00,19.20 -3.20,21.60 -28.00,21.60
l-28.00,0.00 0.00-252.80 0.00-252.00 30.40,2.40 29.60,2.40 2.40,81.60 2.40,81.60 25.60-15.20 c 36.00-22.40 96.00-20.80 137.60,2.40 56.00,31.20 84.00,90.40 84.00,174.40 0.00,78.40 -33.60,142.40 -89.60,172.00 -20.80,11.20 -86.40,14.40 -110.40,5.60z m 95.20-63.20
c 36.00-30.40 52.00-90.40 41.60-155.20 -5.60-32.00 -14.40-56.80 -25.60-68.80 -52.00-55.20 -132.00-40.00 -158.40,31.20 -12.80,33.60 -10.40,112.80 4.80,150.40 24.00,60.80 91.20,81.60 137.60,42.40z" horiz-adv-x="328"  />
<glyph unicode="&#x31;" d="M0.00,224.00 l0.00-256.00 52.00,0.00 52.00,0.00 0.00,84.00 0.00,84.00 144.00,0.00 144.00,0.00 0.00,172.00 0.00,172.00 -196.00,0.00 -196.00,0.00 0.00-256.00z m 286.40,86.40 l-2.40-74.40 -89.60-2.40 -90.40-2.40 0.00,76.80 0.00,76.00 92.00,0.00 92.80,0.00 -2.40-73.60z" horiz-adv-x="400"  />
<glyph unicode="&#x32;" d="M 156.00,469.60 c-116.80-38.40 -181.60-137.60 -148.00-225.60 9.60-24.00 45.60-60.00 61.60-60.00 20.00,0.00
25.60,33.60 9.60,60.00 -53.60,87.20 51.20,201.60 168.00,184.00 48.00-7.20 75.20-22.40 97.60-52.80 36.00-50.40 12.00-166.40 -42.40-199.20 -35.20-20.80 -59.20-20.00 -82.40,3.20 -19.20,19.20 -19.20,20.00 -7.20,58.40 6.40,20.80 14.40,53.60 16.80,71.20 4.00,29.60 1.60,35.20
-15.20,46.40 -15.20,10.40 -24.80,11.20 -40.80,5.60 -33.60-12.80 -48.80-43.20 -43.20-88.80 3.20-29.60 -0.80-60.80 -18.40-125.60
-23.20-85.60 -28.80-136.00 -16.80-165.60 4.80-12.00 10.40-8.00 34.40,28.00 16.00,24.00 35.20,64.00 41.60,88.80 l 12.80,45.60 26.40-15.20 c 76.80-47.20 197.60,19.20 221.60,121.60 22.40,90.40 -9.60,160.00 -91.20,202.40 -54.40,27.20 -132.00,34.40 -184.80,17.60z" horiz-adv-x="440"  />
<glyph unicode="&#x33;" d="M 193.60,473.60 c-10.40-3.20 -19.20-7.20 -20.00-9.60 -1.60-3.20 64.00-66.40 160.80-155.20 l 25.60-24.00 0.00,84.80 0.00,84.80 -32.00,12.80 c-32.00,12.80 -99.20,16.00 -134.40,6.40zM 99.20,425.60 c-59.20-43.20 -100.00-127.20 -98.40-205.60 0.80-67.20 3.20-67.20 121.60,41.60 l 111.20,100.80
-42.40,42.40 c-23.20,24.00 -46.40,43.20 -52.00,43.20 -4.80,0.00 -23.20-10.40 -40.00-22.40zM 384.00,292.80 l0.00-148.80 56.00,0.00 c 53.60,0.00 56.00,0.80 61.60,21.60 24.00,84.80 -20.00,206.40 -93.60,258.40
l-24.00,16.80 0.00-148.00zM 68.80,175.20 c-47.20-44.80 -47.20-45.60 -36.80-70.40 5.60-14.40 27.20-42.40 47.20-62.40 l 36.80-37.60 2.40,53.60
c 1.60,29.60 1.60,77.60 0.00,108.00 l-2.40,53.60 -47.20-44.80zM 153.60,50.40 c 2.40-60.80 2.40-61.60 26.40-68.00 13.60-4.00 48.00-7.20 76.80-7.20 82.40-1.60 171.20,45.60 209.60,112.00 l 14.40,24.80 -164.80,0.00 -164.80,0.00 2.40-61.60z"  />
<glyph unicode="&#x34;" d="M 106.40,470.40 c-8.80-12.00 -98.40-404.00 -98.40-429.60 0.00-15.20 4.80-16.80 47.20-16.80 57.60,0.00 64.80,7.20
80.80,83.20 l 12.00,56.80 58.40,4.80 c 176.00,16.00 278.40,120.00 230.40,233.60 -16.00,37.60 -38.40,54.40 -90.40,66.40 -60.00,14.40
-229.60,15.20 -240.00,1.60z m 193.60-91.20 c 35.20-23.20 24.00-80.00 -19.20-102.40 -23.20-12.80 -92.80-19.20 -101.60-10.40 -7.20,7.20 20.00,112.00 31.20,119.20 16.80,10.40 69.60,7.20 89.60-6.40zM 462.40,348.00 c 4.00-52.00 -7.20-85.60 -41.60-122.40 -38.40-41.60 -77.60-57.60 -164.00-67.20 -42.40-4.80
-80.00-12.00 -84.80-16.00 -4.00-4.00 -15.20-35.20 -24.00-68.80 l-16.00-61.60 -33.60-2.40 c-30.40-2.40 -34.40-4.80 -34.40-22.40 0.00-18.40 2.40-19.20 47.20-19.20 53.60,0.00 59.20,4.80 72.80,56.00 23.20,92.00 16.80,84.80 90.40,90.40 114.40,8.80 184.00,45.60
214.40,112.80 24.00,53.60 15.20,126.40 -18.40,154.40 -10.40,8.80 -11.20,4.00 -8.00-33.60z" horiz-adv-x="504"  />
<glyph unicode="&#x35;" d="M 120.00,440.00 c0.00-27.20 -3.20-40.00 -9.60-40.00 -16.00,0.80 -38.40,20.80 -38.40,34.40 0.00,16.80 -28.00,32.00 -48.00,25.60 -36.00-11.20 -20.00-68.00 19.20-68.00 9.60,0.00 30.40-8.80 47.20-20.00 28.00-19.20 29.60-22.40 29.60-64.00 0.00-24.00 -2.40-44.00 -6.40-44.00 -12.00,0.00 -41.60,24.80 -41.60,35.20 0.00,32.00 -58.40,36.00 -68.00,4.00 -7.20-20.80 8.80-39.20 33.60-39.20 11.20,0.00
34.40-11.20 51.20-24.80 29.60-23.20 31.20-26.40 31.20-72.00 0.00-25.60 -2.40-47.20 -5.60-47.20 -12.00,0.80 -36.80,23.20 -45.60,41.60
-12.80,24.80 -48.80,28.80 -60.80,7.20 -12.80-24.00 2.40-48.80 29.60-48.80 12.00,0.00 35.20-9.60 52.00-20.80 30.40-21.60 30.40-21.60
30.40-76.00 0.00-49.60 1.60-55.20 15.20-55.20 12.00,0.00 16.80,6.40 18.40,24.80 1.60,19.20 8.80,28.80 30.40,40.00 15.20,8.00 37.60,16.80 49.60,19.20 28.80,5.60 36.80,32.80 16.00,53.60 -19.20,19.20 -46.40,13.60 -54.40-12.00 -5.60-16.80 -24.80-36.80 -36.80-37.60 -4.00,0.00 -6.40,21.60
-6.40,47.20 0.00,44.80 1.60,49.60 26.40,68.00 15.20,12.00 36.80,20.80 48.00,20.80 27.20,0.00 41.60,24.80 29.60,48.80 -12.80,24.00 -48.80,17.60 -62.40-10.40 -5.60-12.80 -17.60-26.40 -26.40-30.40 -14.40-8.00 -15.20-5.60 -15.20,40.00 0.00,47.20 0.80,48.00 31.20,68.80 17.60,11.20 35.20,18.40 39.20,16.00 4.80-2.40 16.00,1.60 25.60,9.60 13.60,10.40 16.80,19.20 12.80,32.00 -10.40,32.00 -68.80,29.60 -68.80-3.20 0.00-9.60 -29.60-35.20 -40.80-35.20 -3.20,0.00 -4.00,21.60 -1.60,47.20 5.60,59.20 -2.40,104.80 -17.60,104.80 -8.80,0.00 -12.00-10.40 -12.00-40.00z" horiz-adv-x="264"  />
<glyph unicode="&#x36;" d="M 168.00,396.00 l0.00-84.00 -84.00,0.00 -84.00,0.00 0.00-84.00 0.00-84.00 84.00,0.00 83.20,0.00 2.40-85.60 2.40-86.40 86.40-2.40 85.60-2.40 0.00,88.80 0.00,88.00 84.00,0.00 84.00,0.00 0.00,84.00 0.00,83.20 -85.60,2.40 -86.40,2.40 3.20,82.40
2.40,81.60 -88.80,0.00 -88.80,0.00 0.00-84.00z"  />
<glyph unicode="&#x37;" d="M0.00,224.00 l0.00-256.00 93.091,0.00 93.091,0.00 0.00,169.891 0.00,168.727 50.036-3.491 48.873-3.491 3.491-167.564 3.491-167.564 60.509,8.146 c 33.746,3.491 72.146,6.982 87.273,6.982 25.60,0.00 25.60,2.327 25.60,162.909 l0.00,162.909 53.527,0.00 53.527,0.00 -4.654-166.40 -3.491-165.236 90.764-3.491
89.60-3.491 0.00,257.164 0.00,256.00 -372.364,0.00 -372.364,0.00 0.00-256.00z" horiz-adv-x="744"  />
<glyph unicode="&#x38;" d="M 397.498,358.982 l-52.131-111.709 -175.011,0.00 -174.08,0.00 161.978-121.018 162.909-121.018 18.618,38.167 17.687,37.236 -26.996,21.411 c-15.826,12.102 -38.167,30.72 -51.20,40.96 l-23.273,19.549 70.749,0.931 70.749,0.00 26.066,58.647 25.134,57.716 21.411-55.854 21.411-55.854 48.407-2.793
c 28.858-1.862 47.476,0.931 45.614,6.516 -19.549,53.062 -125.673,298.822 -130.327,298.822 -2.793,0.00 -28.858-50.269 -57.716-111.709zM 425.426,186.764 c-14.894-31.651 -17.687-32.582 -67.026-32.582 -27.927,0.00 -51.20-2.793 -51.20-7.447 0.00-3.724 16.756-16.756
37.236-29.789 20.48-13.033 37.236-26.996 37.236-32.582 0.00-4.654 -8.378-31.651 -18.618-59.578 l-19.549-49.338 35.374,21.411 c 19.549,12.102 42.822,25.134
51.20,30.72 13.033,7.447 25.134,2.793 59.578-20.48 23.273-16.756 44.684-28.858 47.476-26.066 2.793,2.793 -2.793,24.204 -12.102,48.407 l-16.756,43.753 41.891,36.306
40.96,35.374 -56.786,0.00 -56.786,0.00 -11.171,37.236 c-5.586,20.48 -13.964,37.236 -18.618,37.236 -3.724,0.00 -13.964-14.894 -22.342-32.582z" horiz-adv-x="595"  />
<glyph unicode="&#x39;" d="M 17.626,458.177 c-36.092-46.164 -10.911-95.686 47.842-95.686 39.449,0.00 62.951,22.662 62.951,60.433 0.00,54.558 -76.38,78.898
-110.794,35.253zM 328.184,298.702 c-25.18-20.984 -26.02-20.984 -26.02-4.197 0.00,15.947 -5.036,17.626 -58.754,17.626 l-58.754,0.00 0.00-172.066 0.00-172.905 57.075,2.518 56.236,2.518 2.518,109.114 c 1.678,97.364 4.197,110.794 20.144,127.58 10.072,10.911 27.698,19.305 39.449,19.305 49.522-0.839 59.594-26.02 59.594-154.439 l0.00-105.758 54.558,0.00 54.558,0.00 0.00,134.295 c0.00,117.508 -1.678,136.813 -15.947,160.314 -25.18,41.128 -57.075,57.914 -111.633,57.914
-38.61,0.00 -52.039-4.197 -73.023-21.823zM 8.394,140.066 l0.00-172.905 57.075,2.518 56.236,2.518 2.518,170.387 1.678,169.547 -58.754,0.00 -58.754,0.00 0.00-172.066z" horiz-adv-x="536"  />
<glyph unicode="&#x3a;" d="M 147.20,449.28 c-56.32-24.32 -116.48-89.60 -134.40-143.36 -69.12-207.36 140.80-391.68 341.76-300.80 61.44,28.16 81.92,58.88 66.56,99.84 -12.80,34.56 -30.72,38.40 -42.24,8.96 -12.80-32.00 -116.48-71.68 -166.40-62.72 -147.20,28.16 -188.16,241.92 -60.16,316.16 61.44,37.12 106.24,38.40 167.68,7.68 53.76-28.16 61.44-38.40 121.60-172.80 75.52-170.24 108.80-208.64 188.16-217.60 113.92-12.80 199.68,65.28 181.76,163.84 -11.52,61.44 -47.36,94.72 -126.72,120.32 -80.64,24.32 -102.40,46.08 -90.88,89.60 10.24,40.96 64.00,56.32 94.72,28.16 14.08-12.80 34.56-17.92 51.20-12.80 71.68,17.92 -6.40,88.32 -97.28,85.76 -64.00-1.28 -110.08-39.68 -122.88-101.12 -12.80-62.72 26.88-112.64 121.60-149.76 90.88-37.12 108.80-55.04 96.00-103.68 -5.12-23.04 -21.76-37.12 -52.48-47.36 -66.56-21.76 -102.40,6.40 -156.16,125.44 -93.44,204.80 -96.00,209.92 -154.88,247.04 -66.56,42.24 -157.44,49.92 -226.56,19.20z" horiz-adv-x="819"  />
<glyph unicode="&#x3b;" d="M 410.947,446.316 c-21.558-12.126 -53.894-36.379 -68.716-55.242 -18.863-22.906 -32.337-29.642 -37.726-20.21 -26.947,43.116
-156.294-12.126 -156.294-66.021 0.00-13.474 -16.169-30.99 -40.421-40.421 -129.347-53.894 -144.169-210.19 -24.253-270.821 44.463-22.906 80.842-25.60 346.274-25.60 247.916,0.00 304.506,4.042 343.579,21.558 122.61,59.284 110.484,223.663 -20.21,273.516 -22.906,8.084 -37.726,25.60 -43.116,51.20 -24.253,119.916 -183.242,189.979 -299.116,132.042z" horiz-adv-x="861"  />
<glyph unicode="&#x3c;" d="M0.00,472.00 c0.00-39.20 41.60-444.80 46.40-448.80 3.20-3.20 44.80-16.80 92.80-29.60 l 87.20-24.00 88.80,24.00
c 48.80,13.60 90.40,26.40 92.00,28.00 4.00,3.20 40.00,383.20 40.80,428.80 l0.00,29.60 -224.00,0.00 c-144.00,0.00 -224.00-3.20 -224.00-8.00z m 368.00-108.00 l0.00-28.00 -107.20,0.00 c-60.00,0.00 -109.60-3.20 -112.80-8.00 -2.40-4.00 -2.40-16.00 0.80-27.20 4.80-20.00 5.60-20.00 106.40-22.40 l 100.80-2.40 -1.60-20.00 c-0.80-11.20 -4.00-51.20 -6.40-88.80 l-5.60-68.80 -57.60-16.00
c-57.60-15.20 -58.40-15.20 -114.40,0.00 -61.60,16.80 -66.40,22.40 -66.40,80.00 0.00,28.80 0.80,29.60 28.00,29.60 25.60,0.00 28.00-2.40 28.00-22.40 0.00-20.00 4.80-24.00 32.00-32.80 43.20-12.80 96.00,1.60 96.00,26.40 0.00,9.60 2.40,24.80 4.80,34.40 4.80,18.40 4.80,18.40 -91.20,18.40
-53.60,0.00 -98.40,3.20 -100.80,6.40 -2.40,4.00 -6.40,43.20 -9.60,88.00 l-5.60,81.60 141.60,0.00 140.80,0.00 0.00-28.00z" horiz-adv-x="456"  />
<glyph unicode="&#x3d;" d="M 146.40,462.40 c-16.80-16.00 -18.40-16.80 -32.80-4.00 -17.60,16.00 -34.40,17.60 -48.00,4.00 -13.60-13.60 -11.20-45.60 6.40-84.00 l 15.20-33.60 -39.20-24.00 c-42.40-26.40 -57.60-56.00 -40.00-76.80 15.20-18.40 45.60-14.40 85.60,12.80 30.40,20.80 35.20,22.40 32.80,10.40 -1.60-8.80 -22.40-24.80 -50.40-39.20 -38.40-19.20 -48.00-28.00 -48.00-43.20 0.00-28.00 23.20-40.00
42.40-21.60 20.00,17.60 28.80,5.60 16.80-24.80 -4.00-12.00 -6.40-33.60 -3.20-48.00 4.00-22.40 2.40-26.40 -15.20-31.20 -56.00-13.60
-55.20-67.20 0.80-82.40 39.20-11.20 91.20-11.20 120.00,0.00 12.00,4.80 62.40,8.00 110.40,7.20 127.20-0.80 223.20,30.40 208.80,68.80
-4.00,11.20 -13.60,12.80 -59.20,8.00 -91.20-8.80 -132.80,20.00 -140.00,98.40 -6.40,73.60 -52.80,145.60 -109.60,168.80 -28.00,11.20
-28.00,11.20 -12.00,56.00 16.00,44.80 15.20,84.80 -0.80,91.20 -19.20,7.20 -22.40,6.40 -40.80-12.80z"  />
<glyph unicode="&#x3e;" d="M 108.80,468.00 c-41.60-14.40 -80.00-53.60 -96.80-97.60 -21.60-55.20 -12.80-111.20 28.80-180.80 68.00-116.80 128.80-213.60 133.60-213.60 3.20,0.00 23.20,29.60 44.00,66.40 21.60,36.00 58.40,97.60 82.40,136.80 61.60,102.40 64.00,148.80
12.00,233.60 -33.60,54.40 -131.20,80.80 -204.00,55.20z m 113.60-121.60 c 36.00-39.20 4.80-98.40 -50.40-98.40 -51.20,0.00 -79.20,68.00 -41.60,101.60 34.40,31.20 61.60,30.40 92.00-3.20z" horiz-adv-x="352"  />
<glyph unicode="&#x3f;" d="M 44.00,464.00 c-3.20-8.80 -4.00-28.80 -3.20-43.20 1.60-15.20 -1.60-32.00 -7.20-38.40 -14.40-17.60 -24.80-83.20
-17.60-112.80 12.80-57.60 42.40-86.40 104.00-102.40 l 39.20-9.60 -16.00-23.20 c-23.20-32.00 -54.40-30.40 -88.00,5.60
-15.20,15.20 -33.60,28.00 -41.60,28.00 -13.60,0.00 -13.60-1.60 4.00-24.00 48.00-63.20 50.40-64.80 84.80-69.60 32.00-4.00 33.60-5.60
33.60-32.80 0.00-15.20 -5.60-35.20 -13.60-43.20 -12.00-13.60 -12.00-14.40 2.40-14.40 27.20,0.00 32.80,11.20 40.80,72.00 l 8.00,60.00 1.60-61.60 c0.00-33.60 -2.40-64.00 -7.20-66.40 -11.20-7.20 -9.60-20.00 2.40-20.00 25.60,0.00 37.60,28.80 39.20,88.80 l 0.80,59.20 4.80-62.40
c 4.00-49.60 8.00-65.60 20.00-74.40 21.60-15.20 32.00-14.40 24.00,3.20 -10.40,22.40 -13.60,121.60 -4.00,121.60 5.60,0.00 8.80-19.20 8.80-50.40 0.00-55.20 8.00-69.60 40.00-69.60 18.40,0.80 19.20,1.60 6.40,11.20 -11.20,8.00 -14.40,22.40 -14.40,57.60 -0.80,25.60 -5.60,60.00 -11.20,76.80 -10.40,28.80 -10.40,28.80 12.80,33.60 48.80,9.60 80.00,30.40 95.20,64.00 20.00,44.00 19.20,104.80 -0.80,144.80 -8.80,17.60 -16.00,43.20 -16.00,56.80 0.00,52.80 -12.80,61.60 -58.40,38.40 -35.20-18.40 -183.20-18.40 -217.60,0.00 -32.00,16.80 -49.60,16.00 -56.00-3.20z" horiz-adv-x="408"  />
<glyph unicode="&#x40;" d="M 180.80,406.40 c-16.80-40.80 -52.00-124.80 -76.80-186.40 -40.80-98.40 -88.80-212.80 -101.60-241.60
-3.20-8.00 17.60-10.40 88.80-10.40 l 92.80,0.00 0.00,52.00 c0.00,50.40 -0.80,52.00 -28.80,71.20 -28.80,19.20 -25.60,36.80 4.00,20.80 24.00-12.00 24.80-11.20 24.80,32.80 l0.00,40.00 26.40-2.40 c 21.60-1.60 26.40-6.40 28.00-24.00 3.20-24.80 4.80-25.60 25.60-14.40 10.40,5.60 15.20,4.80 18.40-3.20 3.20-7.20 -4.00-15.20 -19.20-20.80 -13.60-6.40 -23.20-16.00 -23.20-24.80 0.00-17.60 12.80-19.20 40.00-3.20 22.40,12.80
40.00,15.20 40.00,5.60 0.00-4.00 -17.60-15.20 -40.00-25.60 l-40.00-18.40 0.00-43.20 0.00-42.40 92.00,0.00 c 50.40,0.00 92.00,3.20 92.00,6.40 0.00,8.00 -185.60,455.20 -201.60,484.80 -11.20,20.80 -11.20,20.00 -41.60-52.80z" horiz-adv-x="432"  />
<glyph unicode="&#x41;" d="M 160.80,432.80 c-57.60-68.00 -95.20-179.20 -84.80-250.40 4.00-33.60 3.20-35.20 -27.20-53.60 -29.60-18.40
-48.80-44.80 -48.80-68.00 0.00-6.40 12.80-22.40 28.00-36.00 77.60-68.00 302.40-75.20 408.80-12.80 54.40,32.00 54.40,82.40 0.00,116.00 -24.80,15.20 -28.80,21.60 -28.80,48.00 0.00,16.80 -3.20,40.00 -8.00,52.00 -8.00,22.40 -77.60,100.00 -88.80,100.00 -4.00,0.00 -7.20-12.80 -7.20-28.00 0.00-15.20 -4.00-36.00 -8.80-46.40 -9.60-22.40 -46.40-45.60 -70.40-45.60 -19.20,0.00 -20.80,12.00 -4.80,40.00
16.80,29.60 14.40,83.20 -5.60,122.40 -10.40,20.80 -16.00,46.40 -15.20,68.00 0.00,18.40 -0.80,33.60 -2.40,33.60 -1.60,0.00 -18.40-17.60 -36.00-39.20z m-10.40-202.40 c-8.00-52.00 33.60-102.40 84.00-102.40 24.00,0.00 66.40,40.80 79.20,77.60 5.60,14.40 12.00,26.40 15.20,26.40
2.40,0.00 12.80-18.40 22.40-40.00 14.40-33.60 16.00-45.60 9.60-70.40 -8.80-30.40 -37.60-64.00 -70.40-80.80 -46.40-24.00
-136.80,3.20 -160.80,47.20 -18.40,35.20 -3.20,168.00 19.20,168.00 3.20,0.00 3.20-11.20 1.60-25.60z" horiz-adv-x="480"  />
<glyph unicode="&#x42;" d="M 51.20,472.00 c-9.60-3.20 -24.80-16.80 -34.40-28.80 -16.00-20.80 -16.80-29.60 -16.80-218.40 0.00-165.60 1.60-200.00 12.80-215.20 23.20-33.60 52.00-41.60 151.20-41.60 l 92.00,0.00 0.00,95.20 0.00,96.00 -29.60,2.40 -30.40,2.40 0.00,40.00 0.00,40.00
28.80,2.40 c 28.80,2.40 29.60,3.20 32.80,42.40 5.60,55.20 37.60,88.00 92.00,94.40 61.60,8.00 66.40,5.60 66.40-40.00 l0.00-39.20 -39.20,0.00
c-40.80,0.00 -48.80-7.20 -48.80-40.80 0.00-12.80 5.60-15.20 44.00-15.20 l 44.00,0.00 0.00-44.00 0.00-44.00 -44.00,0.00 -44.00,0.00 0.00-96.80 0.00-96.80 64.80,3.20 c 61.60,2.40 65.60,4.00 88.00,28.80 l 23.20,25.60 0.00,194.40 c0.00,106.40 -2.40,200.80 -4.80,209.60 -2.40,8.80
-16.00,24.00 -30.40,34.40 -24.80,16.80 -32.00,17.60 -213.60,16.80 -103.20,0.00 -195.20-3.20 -204.00-7.20z"  />
<glyph unicode="&#x43;" d="M 510.234,266.373 l-2.648-213.627 -21.186-11.476 c-41.49-20.303 -51.20-4.414 -55.614,94.455 -6.179,135.062 -31.779,157.131
-174.786,158.014 -90.924,0.882 -129.766-15.007 -152.718-61.793 -13.242-28.248 -14.124-36.193 -4.414-66.207 14.124-40.607 59.145-74.152 100.634-74.152 19.421,0.00 32.662-5.297 37.958-16.773 16.773-30.897 -9.71-39.724 -128.00-43.255 l-109.462-3.531 0.00-30.897 0.00-30.014 128.882,2.648
128.882,2.648 25.60,29.131 c 19.421,21.186 25.60,37.076 25.60,63.558 0.00,48.552 -28.248,78.566 -88.276,91.807 -52.966,12.358 -72.386,30.897 -53.848,52.966 15.007,18.538 172.138,20.303 183.614,3.531 3.531-6.179 8.827-52.082 11.476-101.518 4.414-83.862 6.179-92.69 28.248-114.758 17.655-17.655 34.427-23.834 70.621-27.366 41.49-3.531 51.20-0.882 75.918,20.303 l 28.248,23.834 0.00,233.048 0.00,233.048 -26.482,0.00 -26.482,0.00 -1.766-213.627z" horiz-adv-x="564"  />
<glyph unicode="&#x44;" d="M 104.80,448.00 c-12.00-40.00 -44.80-79.20 -78.40-92.80 -24.00-10.40 -26.40-14.40 -26.40-47.20 l0.00-36.00
36.00,0.00 36.00,0.00 0.00-115.20 c0.00-127.20 4.80-142.40 58.40-170.40 35.20-18.40 128.00-18.40 168.00-0.80 28.80,12.80 29.60,15.20
29.60,54.40 l0.00,40.00 -28.80-12.00 c-36.80-15.20 -74.40-15.20 -94.40,0.00 -13.60,10.40 -16.00,23.20 -16.00,105.60 l-0.80,94.40
58.40,2.40 57.60,2.40 0.00,43.20 0.00,43.20 -57.60,2.40 -58.40,2.40 -2.40,58.40 -2.40,57.60 -34.40,0.00 c-32.80,0.00 -34.40-0.80 -44.00-32.00z" horiz-adv-x="328"  />
<glyph unicode="&#x45;" d="M 30.40,468.00 c-12.00-7.20 -24.00-20.80 -26.40-30.40 -3.20-10.40 -4.00-90.40 -2.40-178.40 l 2.40-160.80 24.00-39.20 c 15.20-24.00 39.20-48.00 63.20-63.20 37.60-22.40 44.80-24.00 136.00-26.40 89.60-3.20 98.40-1.60 119.20,14.40 28.80,22.40
30.40,68.80 4.00,93.60 -16.00,14.40 -30.40,17.60 -104.80,20.00 -80.00,2.40 -88.00,4.00 -102.40,21.60 -8.80,11.20 -15.20,31.20 -15.20,48.80 l0.00,30.40 100.00,3.20 c 108.80,2.40 120.00,7.20 128.80,50.40 3.20,17.60 0.00,30.40 -12.80,46.40 -16.80,21.60 -17.60,21.60 -116.00,21.60
l-98.40,0.00 -3.20,60.00 c-2.40,46.40 -6.40,63.20 -18.40,75.20 -22.40,21.60 -52.00,26.40 -77.60,12.80z" horiz-adv-x="376"  />
<glyph unicode="&#x46;" d="M 426.666,443.591 c-11.378-14.791 -35.271-52.338 -51.20-85.334 -26.169-51.20 -32.995-56.889 -46.649-43.235 -18.205,17.066
-160.426,89.885 -201.386,102.40 -25.031,6.826 -26.169,5.689 -19.342-19.342 4.551-13.654 15.929-35.271 26.169-45.511 10.24-13.654 12.515-20.48 4.551-20.48
-23.894,0.00 -14.791-31.858 14.791-54.614 17.066-13.654 23.894-26.169 17.066-30.72 -19.342-12.515 -12.515-27.306 20.48-48.925 19.342-11.378 29.582-27.306 27.306-39.822 -2.275-12.515 5.689-22.755 22.755-29.582 25.031-10.24 23.894-11.378 -25.031-34.134 -64.854-29.582 -108.089-29.582 -164.978-1.138
-23.894,12.515 -45.511,20.48 -47.786,18.205 -2.275-2.275 13.654-19.342 36.409-39.822 180.906-158.151 477.866-111.502 581.405,92.16 21.618,42.098 34.134,54.614 55.751,54.614 14.791,0.00 30.72,5.689 34.134,11.378 3.414,6.826 -1.138,11.378 -10.24,11.378 -22.755,0.00 -22.755,10.24 0.00,35.271 17.066,19.342 15.929,20.48 -20.48,14.791 -35.271-5.689 -38.685-3.414 -52.338,34.134 -15.929,43.235 -72.818,97.849 -102.40,97.849 -17.066,1.138 -17.066,2.275 1.138,12.515 29.582,17.066 12.515,32.995
-35.271,32.995 -29.582,0.00 -48.925-7.965 -64.854-25.031z" horiz-adv-x="728"  />
<glyph unicode="&#x47;" d="M 423.314,465.371 c-31.086-13.714 -68.571-56.686 -85.029-98.743 -9.143-25.60 -9.143-25.60 15.543-21.029 37.486,7.314 57.60-7.314 57.60-42.057 0.00-38.40 -68.571-145.371 -90.514-141.714 -19.20,3.657 -44.80,80.457 -57.60,174.629 -12.80,92.343 -35.657,128.914 -82.286,132.571 -28.343,2.743 -41.143-3.657 -90.514-45.714 -94.171-77.714 -95.086-78.629 -76.80-98.743 14.629-16.457 17.371-16.457 37.486-2.743 20.114,12.80 23.771,12.80 39.314-0.914 9.143-8.229 30.171-61.257 45.714-117.943 58.514-199.314 73.143-225.829 125.257-225.829 46.629,0.00 95.086,28.343
150.857,88.686 97.829,106.057 172.80,239.543 172.80,309.029 0.00,86.857 -74.971,128.914 -161.829,90.514z" horiz-adv-x="584"  />
<glyph unicode="&#x48;" d="M 169.60,465.60 c-52.80-19.20 -94.40-52.00 -127.20-100.80 -100.00-147.20 -16.80-352.00 157.60-388.80
85.60-18.40 171.20,5.60 232.80,65.60 100.00,96.80 100.80,263.20 2.40,361.60 -66.40,67.20 -179.20,92.80 -265.60,62.40z m 169.60-25.60 c 56.00-21.60 65.60-32.80 44.80-52.00 -20.80-19.20 -20.00-36.00 4.00-84.00 11.20-21.60 20.00-53.60 20.00-70.40 0.00-37.60
-36.00-146.40 -43.20-129.60 -11.20,28.00 -68.80,215.20 -68.80,223.20 0.00,4.80 5.60,8.80 12.00,8.80 6.40,0.00 12.00,4.00 12.00,8.00 0.00,4.80
-26.40,8.00 -64.00,8.00 -35.20,0.00 -66.40,0.00 -69.60,0.80 -15.20,1.60 -8.80-16.00 6.40-18.40 12.80-1.60 21.60-14.40 34.40-51.20 l 17.60-48.00 -24.80-74.40 -24.00-73.60 -39.20,114.40 c-21.60,63.20 -40.80,119.20 -43.20,124.80 -1.60,5.60 4.00,9.60 14.40,9.60 10.40,0.00 16.00,4.00 13.60,10.40 -1.60,6.40 -15.20,8.80 -40.00,7.20 -21.60-1.60 -37.60,0.80 -37.60,4.80 0.00,13.60 57.60,59.20 99.20,78.40 52.00,24.00 116.00,25.60
176.00,3.20z m 148.80-208.80 c0.00-60.80 -20.80-116.80 -61.60-160.00 -20.00-21.60 -39.20-39.20 -43.20-39.20 -3.20,0.00 13.60,56.00 37.60,124.80 24.00,68.00 43.20,132.00 44.00,141.60 0.80,34.40 22.40-28.00 23.20-67.20z m-393.60-64.80 c 27.20-75.20 48.00-138.40
46.40-140.80 -7.20-7.20 -53.60,32.00 -76.00,64.80 -28.00,41.60 -40.80,80.80 -42.40,127.20 -0.80,40.80 8.00,86.40 16.80,86.40 3.20,0.00
28.00-61.60 55.20-137.60z m 200.80-69.60 c 18.40-50.40 31.20-92.80 28.80-96.00 -8.00-7.20 -111.20-9.60 -122.40-2.40 -7.20,4.80 -4.00,21.60 13.60,74.40 33.60,97.60 42.40,120.00 44.80,117.60 0.80-1.60 16.80-43.20 35.20-93.60z"  />
<glyph unicode="&#x49;" d="M 40.96,469.76 c-25.60-7.68 -21.76-11.52 33.28-30.72 52.48-19.20 74.24-38.40 134.40-116.48 94.72-122.88 111.36-157.44
111.36-227.84 0.00-62.72 -11.52-75.52 -70.40-75.52 -15.36,0.00 -32.00-8.96 -37.12-19.20 -6.40-16.64 14.08-19.20 143.36-17.92 81.92,1.28 163.84,5.12 181.76,10.24 30.72,8.96 30.72,10.24 -12.80,19.20 -97.28,20.48 -93.44,16.64 -87.04,98.56 3.84,56.32 12.80,83.20 37.12,108.80 49.92,56.32
175.36,143.36 216.32,152.32 21.76,5.12 38.40,12.80 38.40,19.20 0.00,15.36 -119.04,28.16 -217.60,23.04 l-83.20-3.84 55.04-30.72 53.76-32.00
-47.36-49.92 c-84.48-85.76 -84.48-87.04 -163.84,32.00 l-70.40,106.24 51.20,3.84 c 34.56,2.56 51.20,10.24 51.20,23.04 0.00,14.08 -26.88,17.92
-143.36,16.64 -79.36-1.28 -157.44-5.12 -174.08-8.96z" horiz-adv-x="819"  />
<glyph unicode="&#x4a;" d="M 116.00,455.20 c-30.40-12.80 -56.80-24.80 -58.40-26.40 -0.80-1.60 25.60-43.20 60.00-92.00 88.80-127.20
104.80-120.80 94.40,41.60 -5.60,84.80 -10.40,101.60 -32.00,100.80 -4.00,0.00 -32.80-10.40 -64.00-24.00zM 325.60,337.60 c-6.40-7.20 -26.40-36.00 -44.00-64.00 -32.00-50.40 -36.00-73.60 -11.20-73.60 27.20,0.00 146.40,41.60 150.40,52.00 4.80,11.20 -49.60,80.80 -72.80,93.60 -5.60,3.20 -15.20,0.00 -22.40-8.00zM 4.80,214.40 c-7.20-66.40 -6.40-86.40 6.40-86.40 6.40,0.00 44.00,7.20 84.00,16.80 96.00,22.40 97.60,34.40 8.80,79.20
-85.60,43.20 -92.80,42.40 -99.20-9.60zM 259.20,148.00 c-8.80-21.60 67.20-140.00 89.60-140.00 9.60,0.00 75.20,81.60 75.20,93.60 0.00,6.40 -139.20,58.40
-154.40,58.40 -3.20,0.00 -8.00-5.60 -10.40-12.00zM 155.20,102.40 c-78.40-84.80 -79.20-85.60 -67.20-97.60 14.40-13.60 101.60-39.20 111.20-32.80 12.80,7.20
20.00,138.40 8.80,152.00 -14.40,16.80 -16.80,16.00 -52.80-21.60z" horiz-adv-x="424"  />
<glyph unicode="&#x4b;" d="M 80.80,448.00 c-13.60-24.00 -16.00-35.20 -9.60-47.20 11.20-20.80 25.60-24.80 86.40-24.80 l 51.20,0.00 -22.40-27.20 c-12.00-14.40 -57.60-68.80 -100.80-119.20 -64.00-76.00 -80.00-99.20 -83.20-125.60 l-4.80-32.00 48.00,0.00 c 52.00,0.00 91.20-16.80 165.60-69.60 21.60-16.00 52.00-29.60 68.00-32.00 40.80-4.80 80.80,18.40 92.80,53.60 9.60,28.80 4.00,68.00 -7.20,49.60
-13.60-21.60 -124.00-3.20 -156.80,26.40 -6.40,6.40 -32.80,19.20 -57.60,28.80 l-45.60,16.80 116.80,128.80 c 64.00,71.20 119.20,137.60
123.20,148.00 15.20,40.00 15.20,40.00 -104.00,39.20 -80.00-1.60 -115.20,1.60 -121.60,8.80 -15.20,14.40 -18.40,12.80 -38.40-22.40z" horiz-adv-x="384"  />
<glyph unicode="&#x4c;" d="M 107.20,472.00 c-25.60-10.40 -43.20-40.00 -43.20-73.60 0.00-32.00 10.40-38.40 40.00-22.40 12.80,7.20 83.20-7.20
107.20-21.60 3.20-2.40 -20.00-30.40 -52.00-63.20 -47.20-47.20 -60.80-56.80 -72.00-50.40 -24.00,12.00 -53.60,8.00 -71.20-10.40
-12.00-13.60 -16.00-28.00 -16.00-64.00 0.00-52.80 11.20-64.00 41.60-43.20 9.60,7.20 20.00,12.80 22.40,12.80 3.20,0.00 26.40-34.40 52.00-76.00 52.00-84.00 72.80-97.60 132.00-88.00 60.80,10.40 110.40,79.20 76.80,107.20 -8.00,7.20 -16.80,5.60 -34.40-4.00 -36.80-21.60
-59.20-10.40 -106.40,52.80 l-42.40,56.80 57.60,61.60 c 32.00,33.60 76.00,80.00 97.60,102.40 43.20,45.60 51.20,78.40 24.80,101.60 -18.40,16.80 -24.80,16.80 -43.20,0.80 -12.80-12.80 -17.60-12.00 -60.00,3.20 -60.00,20.80 -90.40,25.60 -111.20,17.60z" horiz-adv-x="344"  />
<glyph unicode="&#x4d;" d="M 241.014,463.766 c-20.605-4.995 -38.088-9.99 -39.961-11.239 -1.249-1.249 6.868-19.981 17.483-41.21 10.614-21.23 18.732-39.337
17.483-40.586 -1.249-0.624 -21.23-11.239 -44.956-22.478 -149.23-73.678 -219.161-217.288 -166.088-341.542 8.742-20.605 17.483-32.468 24.351-31.844 22.478,0.624 465.795,123.005 464.546,128.624 -0.624,3.122 -28.098,55.57 -61.19,116.761 -46.205,84.293 -58.693,113.014 -53.698,118.01 4.995,4.995 43.707,7.493 121.132,7.493 106.77,0.00 116.137-1.249 157.97-16.234 42.458-15.61 114.888-58.068 114.888-67.434 0.00-5.619 -139.863-39.961 -153.60-36.839 -5.619,0.624 -23.727,23.102 -39.961,48.702 l-29.346,46.83 -63.063,0.00 c-34.342,0.00 -64.937-1.873 -67.434-4.37 -1.873-2.498 21.23-50.576
52.449-106.146 44.332-79.922 58.693-101.151 68.058-99.902 31.844,5.619 455.181,121.756 460.80,126.751 10.614,10.614 -66.186,77.424 -116.137,101.151 -114.263,54.322 -213.542,75.551 -361.522,74.927 -59.942,0.00 -126.751-3.122 -148.605-6.244 l-38.712-6.244 -20.605,36.839 c-22.478,41.21 -27.473,42.458 -94.283,26.224z m 65.561-239.142 l 34.966-73.678 -78.673-18.732 c-56.195-13.737 -79.922-16.858 -83.044-11.863
-7.493,10.614 -5.619,52.449 2.498,81.17 4.995,16.858 19.981,38.088 43.083,61.814 19.981,19.356 38.088,35.59 41.21,35.59 3.122,0.00 21.23-33.093 39.961-74.302z" horiz-adv-x="1029"  />
<glyph unicode="&#x4e;" d="M 134.40,421.12 l0.00-58.88 -67.20,0.00 -67.20,0.00 0.00-138.24 0.00-138.24 113.92,0.00 113.92,0.00 0.00,197.12 0.00,197.12 -46.72,0.00 -46.72,0.00 0.00-58.88z m0.00-197.12 l0.00-57.60 -21.12,0.00 -21.12,0.00 0.00,57.60 0.00,57.60 21.12,0.00 21.12,0.00 0.00-57.60zM 268.80,439.68 l0.00-40.32 46.72,0.00 46.72,0.00 0.00,40.32 0.00,40.32 -46.72,0.00 -46.72,0.00 0.00-40.32zM 268.80,224.00 l0.00-138.24 46.72,0.00 46.72,0.00 0.00,138.24 0.00,138.24 -46.72,0.00 -46.72,0.00 0.00-138.24zM 404.48,224.00 l0.00-138.24 67.20,0.00 67.20,0.00 0.00-18.56 0.00-18.56 -67.20,0.00 -67.20,0.00 0.00-40.32
0.00-40.32 113.92,0.00 113.92,0.00 0.00,197.12 0.00,197.12 -113.92,0.00 -113.92,0.00 0.00-138.24z m 134.40,0.00 l0.00-57.60
-21.12,0.00 -21.12,0.00 0.00,57.60 0.00,57.60 21.12,0.00 21.12,0.00 0.00-57.60zM 673.28,224.00 l0.00-138.24 67.84,0.00 67.84,0.00 0.00-18.56 0.00-18.56 -67.84,0.00 -67.84,0.00 0.00-40.32
0.00-40.32 113.92,0.00 113.92,0.00 0.00,197.12 0.00,197.12 -113.92,0.00 -113.92,0.00 0.00-138.24z m 135.68,0.00 l0.00-57.60
-21.12,0.00 -21.12,0.00 0.00,57.60 0.00,57.60 21.12,0.00 21.12,0.00 0.00-57.60z" horiz-adv-x="900"  />
<glyph unicode="&#x4f;" d="M 225.882,472.17 c-6.626-4.217 -60.235-56.621 -118.663-116.254 -101.195-103.002 -107.219-110.23 -107.219-131.915
0.00-21.685 6.023-29.515 104.207-128.903 56.621-58.428 110.23-110.833 118.663-116.254 8.433-6.023 24.697-10.842 35.539-10.842 19.275,0.00 31.322,10.24 135.53,114.447 114.447,113.242 115.05,114.447 115.05,140.348 0.00,14.457 -3.614,31.322 -8.433,36.743 -7.83,9.638 -18.07,0.602 -118.663-99.388
-96.377-96.377 -112.038-109.628 -128.903-109.628 -16.866,0.00 -30.118,10.842 -99.99,81.318 -97.581,97.581 -97.581,98.183 -45.779,150.588 46.381,45.779 55.417,45.779 106.617-2.41 l 39.755-36.743 66.259,65.657 66.259,65.657 -53.61,53.007 c-46.381,45.177 -56.621,52.405 -74.09,52.405 -11.445-0.602 -25.901-3.614 -32.527-7.83zM 351.172,298.09 l-98.183-98.183 -43.972,43.972 c-24.094,23.492 -48.188,43.37 -53.007,43.37 -9.638,0.00 -59.633-49.393 -59.633-57.826 0.00-9.638 147.577-152.998 157.214-152.998 10.842,0.00 258.41,249.977 258.41,260.819 0.00,8.433 -48.79,58.428 -57.223,58.428 -3.012,0.00
-49.995-43.972 -103.605-97.581z"  />
<glyph unicode="&#x50;" d="M 238.08,479.386 c-25.498-2.56 -42.394-5.837 -61.44-12.186 -55.706-18.33 -101.786-53.555 -134.144-102.40 -51.098-77.005 -56.32-176.64 -13.722-258.458 15.872-30.515 40.653-60.826 66.458-81.408 73.318-58.675
171.213-73.011 257.536-37.888 47.206,19.354 88.064,52.941 116.736,96.154 56.422,84.992 56.422,196.71 0.00,281.60 -41.062,61.85 -104.448,101.99 -178.176,112.742 -10.035,1.434 -45.056,2.662 -53.248,1.843z m 43.93-54.17 c 30.003-3.891 58.88-14.643 84.07-31.232 31.642-20.89 55.194-47.514 71.168-80.384 14.336-29.491 21.504-62.669 20.173-93.594 -1.434-34.202 -12.186-51.405 -31.949-51.405 -12.186,0.00 -23.962,4.71 -38.093,15.36 -11.571,8.704 -18.534,16.589 -38.605,43.52
-9.728,13.005 -21.504,28.262 -26.112,33.894 -40.653,49.152 -80.896,82.739 -118.17,98.816 -13.619,5.837 -37.274,13.312 -39.424,12.493 -1.126-0.41 -1.331-1.741 -0.819-5.325 4.403-32.973 5.222-68.813 2.253-88.474 -5.018-31.949 -14.438-52.838 -32.256-71.578 -21.197-22.221 -45.466-31.744 -62.054-24.371 -13.107,5.837 -17.92,17.101 -17.92,42.394 -0.102,99.738 75.264,186.47 173.773,199.885 13.824,1.843 39.731,1.843 53.965,0.00z"  />
<glyph unicode="&#x51;" d="M 175.295,464.38 c-88.515-32.109 -149.261-102.40 -167.485-195.254 -21.695-105.871 41.654-223.891 144.054-271.62
60.746-28.638 148.394-28.638 208.271,0.00 156.203,73.762 196.99,268.149 83.309,398.318 -61.614,70.291 -178.766,99.797 -268.149,68.556z m 135.376-131.905 c 105.871-65.085 66.82-225.627 -54.671-225.627 -121.491,0.00 -159.674,161.41 -54.671,225.627 36.447,21.695 72.895,21.695 109.342,0.00z"  />
<glyph unicode="&#x52;" d="M 450.782,463.861 l-16.139-15.582 -51.757,12.243 c-28.382,7.234 -53.426,11.13 -55.652,8.904 -2.226-1.67 -13.357-30.609 -25.043-64.557 l-21.704-61.218 -32.834-3.896 c-40.07-5.009 -87.374-18.366 -114.643-32.278 -17.809-9.461 -22.261-9.461 -42.296-2.782 -45.634,15.582 -84.591-9.461 -89.60-57.322 -1.67-22.818 0.00-28.939 12.243-43.966 8.904-10.574 14.47-23.93 14.47-35.061 0.00-68.452 71.234-140.243 163.618-164.73 104.626-27.826 228.73-5.566 299.966,53.982 30.052,24.487 53.982,68.452 53.982,99.061 0.00,17.252 3.896,28.382 13.913,40.07 18.922,22.818 22.818,48.974 11.13,73.461 -16.139,34.504 -47.304,46.748 -83.478,34.504 -20.591-7.234 -23.93-7.234 -51.20,5.566 -30.609,15.026 -89.60,30.609
-114.087,30.609 -8.904,0.00 -15.582,2.226 -15.582,4.452 0.00,5.009 33.391,97.391 36.174,100.174 1.113,1.113 11.687-0.557 24.487-3.896 12.80-3.339 32.834-8.904 45.078-11.687 12.80-3.339 22.261-9.461 22.261-13.913 0.00-4.452 7.234-16.139 16.139-26.157 40.626-45.634 112.974,0.557 89.60,57.322 -14.47,34.504 -62.33,43.409 -89.043,16.696z m-100.174-153.043 c 78.47-14.47 137.461-50.643 160.834-100.174 21.704-43.966 12.80-85.704 -26.713-125.218
-44.522-44.522 -111.304-67.339 -198.122-67.339 -86.818,0.00 -157.496,25.60 -200.348,73.461 -66.226,73.461 -29.496,161.948 84.591,204.80 58.434,21.704 113.53,26.157 179.757,14.47zM 181.982,229.566 c-20.034-15.582 -21.148-50.643 -2.782-63.443 29.496-20.591 65.67-2.782 65.67,31.722 0.00,33.948 -36.73,52.313
-62.887,31.722zM 357.843,235.13 c-38.957-16.139 -25.043-77.913 17.809-77.913 21.148,0.00 41.739,20.591 41.739,41.739 0.00,27.27 -32.834,47.304
-59.548,36.174zM 191.443,98.782 c-4.452-11.13 1.113-17.809 27.27-31.722 33.948-17.809 101.843-17.809 139.13,0.557 28.939,13.913 37.287,25.043 26.713,35.618 -4.452,4.452 -12.243,2.226 -29.496-7.791 -20.034-11.13 -31.166-13.357 -69.566-13.357 -38.40,0.00 -47.861,1.67 -62.33,12.80 -19.478,14.47
-27.27,15.582 -31.722,3.896z" horiz-adv-x="578"  />
<glyph unicode="&#x53;" d="M 266.078,478.522 c-80.764-6.585 -151.584-36.014 -200.634-83.183 -32.118-30.908 -52.544-66.386
-61.01-106.162 -1.882-8.87 -2.419-17.201 -2.419-36.955 0.134-27.952 1.747-38.03 10.347-62.488 13.17-37.493 41.39-76.33
76.195-104.819 l 12.229-9.944 -3.225-5.51 c-13.976-23.786 -53.216-92.456 -53.216-92.858 0.00-2.822 17.47,3.225 73.91,25.667 l 65.982,26.205 18.545-5.913 c 46.766-15.051 85.334-20.426 137.474-19.217 42.734,0.941 72.03,5.778 108.178,17.873 47.169,15.589 82.511,36.955 114.763,69.073 33.462,33.462 51.738,67.863 58.591,110.866 2.822,17.873 1.882,48.781 -2.016,65.982 -6.316,27.011
-19.351,56.038 -36.283,79.824 -10.616,14.917 -35.477,41.122 -50.662,53.35 -52.41,42.062 -119.601,68.804 -193.512,77.002
-18.41,2.016 -56.038,2.688 -73.239,1.21z m 80.63-79.824 c 31.983-3.762 58.322-11.154 84.527-23.651 62.354-29.698 98.234-80.226 95.143-134.249 -1.075-17.335 -4.972-31.714 -13.035-47.706 -26.07-51.872 -88.29-89.768 -163.007-99.443 -20.158-2.554 -55.50-2.554 -75.12,0.00 -87.349,11.422 -156.557,61.278 -171.876,123.633 -4.166,16.798 -4.166,39.778 0.00,55.769 11.826,44.615 49.318,83.452 102.266,105.894 43.54,18.41 94.068,25.533 141.102,19.754z" horiz-adv-x="628"  />
<glyph unicode="&#x54;" d="M 35.165,476.624 c 0.562-1.97 9.565-31.226 19.692-64.985 l 18.286-61.327 0.00-43.604 0.00-43.323 18.286,0.00 18.286,0.00 0.00,46.136 0.00,45.855 18.286,60.202 c 10.127,33.196 18.286,61.046 18.286,62.453 0.00,1.126 -7.596,1.97 -16.879,1.97 -16.035,0.00 -16.879-0.282 -18.848-7.596
-0.844-4.501 -5.908-23.63 -10.69-43.042 l-8.721-34.883 -10.971,42.761 -11.253,42.761 -17.442,0.00 c-12.941,0.00 -17.161-0.844 -16.317-3.376zM 164.009,420.923 c-18.286-10.971 -19.13-14.629 -19.13-77.644 0.00-62.734 0.282-64.141 19.411-78.206 10.971-8.158
37.415-8.158 48.387,0.00 18.848,14.066 19.411,15.754 19.411,76.518 0.00,61.89 -1.688,68.923 -19.13,79.332 -12.097,7.596 -36.853,7.596 -48.95,0.00z
m 32.633-26.444 c 2.25-2.532 3.094-18.848 2.532-52.326 -0.844-42.761 -1.406-48.95 -5.626-51.762 -3.657-2.25 -6.47-2.25 -9.846,0.00
-4.501,2.813 -5.064,9.002 -5.908,51.762 -0.844,50.074 0.562,56.264 10.69,56.264 2.813,0.00 6.47-1.688 8.158-3.938zM 256.00,349.468 c0.00-71.736 0.282-74.268 6.189-81.864 5.345-6.752 7.314-7.596 18.004-6.189 6.47,0.562 15.473,3.938
19.974,7.596 l 7.877,6.189 0.844-5.908 c 0.844-5.345 2.813-5.908 17.723-5.908 l 16.598,0.00 -0.562,79.613 -0.844,79.332 -14.629,0.844 -14.91,0.844 0.00-60.202 c0.00-59.921 0.00-60.202 -6.752-66.391 -3.657-3.657 -9.002-5.908 -12.097-5.345 -4.782,0.844 -5.064,5.345 -5.908,66.391
l-0.562,65.266 -15.473,0.00 -15.473,0.00 0.00-74.268zM 49.23,232.721 c-21.099-5.345 -37.134-19.411 -44.167-38.822 -2.532-7.877 -3.657-31.508 -3.657-90.866 0.00-70.611 0.562-81.864 5.064-93.398 6.189-15.754 22.787-31.789 37.697-35.727 14.629-4.22 190.453-6.752 255.718-3.938 52.888,2.25
54.013,2.532 67.517,10.69 9.565,5.908 15.473,12.659 20.536,22.506 l 7.314,13.785 0.00,86.083 c0.00,82.989 -0.282,86.083 -6.189,97.336 -9.002,16.879
-23.35,28.132 -40.229,31.789 -16.317,3.376 -285.538,3.938 -299.604,0.562z m 304.668-10.127 c 20.536-8.721 31.508-24.194 31.508-45.011 l0.00-12.941 -15.473,10.127 c-8.721,5.345 -16.035,9.846 -16.598,9.846 -0.562,0.00 -14.629,8.158 -31.226,18.286 -16.598,10.127 -32.352,19.692
-34.883,21.099 -8.158,4.782 54.576,3.376 66.673-1.406z m-238.558-42.198 l0.00-12.659 -14.066,0.00 -14.066,0.00 0.00-74.55 0.00-74.55
-14.066,0.00 -14.066,0.00 0.00,74.55 0.00,74.55 -14.066,0.00 -14.066,0.00 0.00,12.659 0.00,12.659 42.198,0.00 42.198,0.00 0.00-12.659z m 115.341-15.754
l0.00-28.132 7.314,5.626 c 13.222,10.409 27.006,6.189 33.758-9.565 4.782-11.815 5.626-88.897 0.844-102.40 -5.064-14.347 -17.723-18.286
-33.477-10.127 -4.782,2.532 -8.439,3.094 -8.439,1.406 0.00-1.406 -5.626-2.813 -12.659-2.813 l-12.659,0.00 0.00,87.209 0.00,87.209 12.659,0.00 12.659,0.00 0.00-28.413z m 122.374-23.35 c 8.158-8.158 12.659-23.63 12.659-44.448 l0.00-16.035 -23.068-0.844 -23.35-0.844 -0.844-18.567 c-0.844-20.255 2.813-27.006 13.222-23.63 3.938,1.126 6.189,5.064 7.596,14.347 1.688,12.097 1.97,12.378 12.659,12.378 l 10.971,0.00 0.00-13.222 c0.00-8.439 -1.97-16.879 -5.626-22.506 -11.253-18.286 -43.886-18.286 -57.389,0.00 -5.064,7.033 -5.908,12.659 -7.033,46.418 -1.126,43.604 1.688,55.982 14.066,66.391 12.097,10.127 36.29,10.409 46.136,0.562z m-215.209-47.824 c0.00-34.602 1.126-52.606 3.094-54.013 1.688-0.844 6.189-0.282 9.846,1.97
6.752,3.376 6.752,3.657 6.752,53.732 l0.00,50.074 12.659,0.00 12.659,0.00 0.00-63.297 0.00-63.297 -12.659,0.00 c-9.283,0.00 -12.659,1.126 -12.659,4.22
0.00,5.626 -1.97,5.345 -10.409-1.406 -3.938-3.094 -10.69-5.626 -15.191-5.626 -12.941,0.00 -16.598,6.47 -16.598,28.976 0.00,11.253 -0.844,38.259
-1.97,60.483 l-1.688,39.947 12.941,0.00 13.222,0.00 0.00-51.762zM 234.057,124.976 c-2.25-2.25 -3.376-16.035 -3.376-43.323 0.00-41.917 1.688-47.824 13.222-45.574 4.501,0.844 5.064,5.064
5.908,41.073 0.844,39.666 -1.126,51.20 -8.721,51.20 -1.97,0.00 -5.064-1.406 -7.033-3.376z" horiz-adv-x="396"  />
<glyph unicode="&#x55;" d="M 156.80,399.104 c-11.264-1.408 -27.904-6.912 -40.32-13.312 -22.912-11.776 -39.424-28.032 -49.28-48.512 -7.168-14.848 -8.96-23.936 -7.808-40.704 0.512-7.168 0.896-14.08 0.896-15.232 0.00-1.28 0.512-2.56 1.152-2.944 0.512-0.384
0.768-1.792 0.384-3.20 -0.384-1.408 -0.128-2.56 0.384-2.56 0.64,0.00 1.28-1.536 1.408-3.456 0.00-1.792 2.688-8.576 5.888-14.976 12.032-24.064 33.92-41.60 61.056-48.64 4.608-1.28 14.976-2.56 23.168-2.944 l 14.976-0.768 -1.92-5.632 c-3.072-8.832 -1.792-27.392 2.56-36.352 1.92-3.84 4.224-8.064 5.376-9.60 1.92-2.688 1.92-2.688 -16.768-3.584 -19.328-0.768 -40.064-4.224
-49.536-8.192 -13.44-5.504 -33.024-16.00 -40.704-21.76 -23.552-17.92 -36.992-41.216 -36.992-64.256 0.00-36.224
27.136-62.72 77.44-75.904 26.368-6.912 56.96-8.832 82.56-5.376 35.072,4.992 60.032,16.768 79.872,37.888 17.664,18.688
26.112,41.984 24.576,67.712 -2.048,34.56 -13.184,54.016 -44.544,77.184 -14.08,10.496 -24.576,20.48 -30.464,29.312 -4.352,6.528
-5.12,8.704 -5.12,14.464 0.00,5.76 0.64,7.68 4.608,12.928 2.56,3.456 9.216,9.984 14.848,14.592 22.016,17.92 33.536,34.048 39.552,55.808
7.808,27.52 -1.152,65.152 -19.84,83.712 -3.968,3.84 -7.168,7.424 -7.168,8.064 0.00,0.512 6.272,0.896 14.08,0.896 l 14.08,0.00 13.44,9.728
c 7.808,5.632 13.056,10.24 12.672,11.008 -0.512,0.768 0.128,2.176 1.408,3.072 1.92,1.536 -9.088,1.792 -67.968,2.048 -38.784,0.256 -73.856,0.00 -77.952-0.512z m 14.848-24.832 c 24.32-7.168 45.312-30.72 55.168-61.952 2.432-8.192 2.944-12.16 2.816-26.24 -0.128-14.336 -0.512-18.048 -3.584-27.136 -5.632-17.408 -17.28-30.464 -31.744-35.712 -7.68-2.816 -21.888-2.56 -30.592,0.512 -26.752,9.472
-49.28,39.296 -55.808,73.856 -1.28,6.784 -1.792,14.976 -1.408,24.448 0.512,13.056 0.896,14.976 5.12,23.936 7.168,14.976 17.152,24.576
29.568,28.544 7.424,2.304 22.144,2.176 30.464-0.256z m 30.08-247.936 c 8.576-2.432 33.152-19.456 44.80-31.104 10.624-10.496
14.592-18.944 14.592-31.104 0.00-32.512 -18.816-55.424 -52.992-64.128 -23.808-6.016 -56.448-6.016 -75.392,0.256 -28.928,9.344 -49.024,30.464 -53.376,56.064 -1.92,11.392 -0.896,18.176 3.968,27.904 9.344,18.816 33.792,35.712 60.16,41.856 5.12,1.152 10.112,2.432
10.752,2.688 3.328,1.28 41.472-0.64 47.488-2.432zM 428.416,379.904 c 0.384-10.752 0.256-29.824 -0.256-42.24 l-0.896-22.784 -42.752,0.00 -42.752,0.00 0.00-9.856 c0.00-5.504 0.384-11.264 0.768-12.80 l 0.768-2.944 42.112,0.00 42.112,0.00 0.00-39.936 c0.00-22.016 0.384-41.344 0.768-42.88 0.768-2.688 1.536-2.944 10.112-2.944 8.576,0.00 9.344,0.256 10.112,2.944 0.384,1.536 0.768,20.864 0.768,42.88 l0.00,40.192 41.60-0.896 41.472-1.024 1.408,3.456 c 0.64,1.92 1.28,8.064 1.28,13.696 l0.00,10.112 -42.88,0.00 -42.88,0.00 0.00,42.24 0.00,42.24 -10.88,0.00 -10.752,0.00 0.768-19.456z" horiz-adv-x="560"  />
<glyph unicode="&#x20;" horiz-adv-x="256" />
<glyph class="hidden" unicode="&#xf000;" d="M0,480L 512 -32L0 -32 z" horiz-adv-x="0" />
</font>
</defs>
</svg>
